Crea sito
Facebook GooglePlus Twitter
Diaspora YouTube LinkeIn

John Peter Sloan - Speak now! evolution (2012) .avi mp3 (2/3

Vuoi imparare l'inglese? Ecco la sezione giusta per te

John Peter Sloan - Speak now! evolution (2012) .avi mp3 (2/3

Messaggio da leggereda angry il 25/11/2012, 11:43

Immagine
Italian |file avi + PDF | tutti da 750 MB ca


Speak Now il corso di inglese facile, veloce e divertente a cura di John Peter Sloan, un autore comico e insegnante che ha iniziato ad insegnare inglese quasi per gioco perché si sentiva deluso di tutti i corsi che aveva frequentato e c'è riuscito in un modo talmente entusiasmante che le sue lezioni sono approdate perfino su Zelig.
L’obiettivo di questa iniziativa editoriale è di fornire un corso di inglese per tutti con un metodo d’apprendimento originale ed innovativo in maniera stimolante e divertente.
Ci saranno 12 uscite con un libretto di 64 pagine e un dvd in ognuna.
I libretti sono l’ideale completamento dei dvd perchè ci sono gli approfondimenti delle regole trattate in essi, come esercizi e letture (sempre con lo spirito che imparare divertendosi è più facile e veloce).


Info file:
Spoiler:
Titolo: Speak now! evolution
dvd: 8 lezioni
libri: 8 fascicoli in pdf
Metodo di rilascio: file avi da circa 750Mb l'uno

General

Format : AVI
Format/Info : Audio Video Interleave
File size : 682 MiB
Duration : 45mn 19s
Overall bit rate : 2 105 Kbps

Video
ID : 0
Format : MPEG-4 Visual
Format profile : [email protected]
Format settings, BVOP : No
Format settings, QPel : No
Format settings, GMC : No warppoints
Format settings, Matrix : Default (H.263)
Codec ID : XVID
Codec ID/Hint : XviD
Duration : 45mn 19s
Bit rate : 1 900 Kbps
Width : 720 pixels
Height : 576 pixels
Display aspect ratio : 16:9
Frame rate : 25.000 fps
Standard : PAL
Color space : YUV
Chroma subsampling : 4:2:0
Bit depth : 8 bits
Scan type : Progressive
Compression mode : Lossy
Bits/(Pixel*Frame) : 0.183
Stream size : 616 MiB (90%)
Writing library : XviD 1.1.2 (UTC 2006-11-01)

Audio
ID : 1
Format : MPEG Audio
Format version : Version 1
Format profile : Layer 3
Mode : Joint stereo
Mode extension : MS Stereo
Codec ID : 55
Codec ID/Hint : MP3
Duration : 45mn 19s
Bit rate mode : Constant
Bit rate : 192 Kbps
Channel(s) : 2 channels
Sampling rate : 48.0 KHz
Compression mode : Lossy
Stream size : 62.2 MiB (9%)
Alignment : Split accross interleaves
Interleave, duration : 24 ms (0.60 video frame)
Interleave, preload duration : 54 ms
Writing library : LAME3.98



Download Link:

Immagine
Codice: Seleziona tutto
DVD 13°  http://ncrypt.in/folder-rcYKaErD
DVD 14°  http://ncrypt.in/folder-lP6aJgal
DVD 15°  http://ncrypt.in/folder-u4diUOOj
DVD 16°  http://ncrypt.in/folder-3ApAmXvP
DVD 17°  http://ncrypt.in/folder-yJH3lJWH
DVD 18°  http://ncrypt.in/folder-sSfLFQV6
DVD 19°  http://ncrypt.in/folder-MmLd2jvo
DVD 20°  http://ncrypt.in/folder-pcb0gRAc

Pdf: http://ncrypt.in/folder-Z4GMepkn

psw:pdv


note: questo è il secondo di 3 a breve l'altro.
Avatar utente
angry
Utente Nuovo
 
Messaggi: 12
Iscritto il: 15/11/2012, 16:54

  • Condividi e Vota l'articolo
  • Condividi e questo articolo di LaScaricata

    Share on Tumblr

Torna a Inglese

Chi c’è in linea

Visitano il forum: Nessuno e 1 ospite

cron
 
Creative Commons License

Dichiarazione di non responsabilita': Nessuno dei files indicati su questo sito e' ospitato o trasmesso da questo server. I links sono forniti dagli utenti del sito, basandosi su servizi esterni. Il progetto LaScaricata non puo' essere ritenuto in alcun modo responsabile per qualsiasi pubblicazione o altra azione commessa dagli utenti. Non e' consentito usare questo sito per la distribuzione o il download di materiale se non si e' espressamente autorizzati a farlo. Siete tenuti a rispettare termini e regolamento del sito.