Crea sito
Pagina 1 di 1

John Peter Sloan - Speak now! for work (2012) .avi mp3 (3/3)

Messaggio da leggereInviato: 29/11/2012, 10:52
da angry
Immagine
Italian |20 file avi + PDF | tutti da 750 MB ca


Speak Now il corso di inglese facile, veloce e divertente a cura di John Peter Sloan, un autore comico e insegnante che ha iniziato ad insegnare inglese quasi per gioco perché si sentiva deluso di tutti i corsi che aveva frequentato e c'è riuscito in un modo talmente entusiasmante che le sue lezioni sono approdate perfino su Zelig.
L’obiettivo di questa iniziativa editoriale è di fornire un corso di inglese per tutti con un metodo d’apprendimento originale ed innovativo in maniera stimolante e divertente.
Ci saranno 12 uscite con un libretto di 64 pagine e un dvd in ognuna.
I libretti sono l’ideale completamento dei dvd perchè ci sono gli approfondimenti delle regole trattate in essi, come esercizi e letture (sempre con lo spirito che imparare divertendosi è più facile e veloce).


Info file:
Spoiler:
Titolo: Speak now! for work
dvd: 20 lezioni
libri: 20 fascicoli in pdf
Metodo di rilascio: file avi da circa 750Mb l'uno

General

Format : AVI
Format/Info : Audio Video Interleave
File size : 682 MiB
Duration : 45mn 19s
Overall bit rate : 2 105 Kbps

Video
ID : 0
Format : MPEG-4 Visual
Format profile : [email protected]
Format settings, BVOP : No
Format settings, QPel : No
Format settings, GMC : No warppoints
Format settings, Matrix : Default (H.263)
Codec ID : XVID
Codec ID/Hint : XviD
Duration : 45mn 19s
Bit rate : 1 900 Kbps
Width : 720 pixels
Height : 576 pixels
Display aspect ratio : 16:9
Frame rate : 25.000 fps
Standard : PAL
Color space : YUV
Chroma subsampling : 4:2:0
Bit depth : 8 bits
Scan type : Progressive
Compression mode : Lossy
Bits/(Pixel*Frame) : 0.183
Stream size : 616 MiB (90%)
Writing library : XviD 1.1.2 (UTC 2006-11-01)

Audio
ID : 1
Format : MPEG Audio
Format version : Version 1
Format profile : Layer 3
Mode : Joint stereo
Mode extension : MS Stereo
Codec ID : 55
Codec ID/Hint : MP3
Duration : 45mn 19s
Bit rate mode : Constant
Bit rate : 192 Kbps
Channel(s) : 2 channels
Sampling rate : 48.0 KHz
Compression mode : Lossy
Stream size : 62.2 MiB (9%)
Alignment : Split accross interleaves
Interleave, duration : 24 ms (0.60 video frame)
Interleave, preload duration : 54 ms
Writing library : LAME3.98



Download Link:

Immagine
Codice: Seleziona tutto
DVD 1°   http://ncrypt.in/folder-gr28prNv
DVD 2°   http://ncrypt.in/folder-w4oolUYl
DVD 3°   http://ncrypt.in/folder-ASCpN04s
DVD 4°   http://ncrypt.in/folder-VArwvoc6
DVD 5°   http://ncrypt.in/folder-QSmVhxkc
DVD 6°   http://ncrypt.in/folder-MbOgHnl2
DVD 7°   http://ncrypt.in/folder-s1b8CuRQ
DVD 8°   http://ncrypt.in/folder-TK5isJzR
DVD 9°   http://ncrypt.in/folder-Rl6cLLCF
DVD 10°  http://ncrypt.in/folder-i9HUnFKU
DVD 11°  http://ncrypt.in/folder-tnHFThuI
DVD 12°  http://ncrypt.in/folder-U9Nxtz1u
DVD 13°  http://ncrypt.in/folder-BeI8OUQq
DVD 14°  http://ncrypt.in/folder-bQqkWWtm
DVD 15°  http://ncrypt.in/folder-ZWoJtFHC
DVD 16°  http://ncrypt.in/folder-3TTEX8LC         new
DVD 17°
DVD 18°  http://ncrypt.in/folder-Ga5dgtnz         new
DVD 19°  http://ncrypt.in/folder-rMKqPgdi         new
DVD 20°


Pdf: http://ncrypt.in/folder-fTmhNxiq

psw:pdv


Note: Manca il file 17 e il 20, e i pdf 15 e 16. Gli ultimi quattro dischi della collana è un quiz show e non ha libretti. Quindi il corso finirebbe al 16° disco.
Io continuo nella mia ricerca, se qualcuno trova qualcosa mi faccia sapere qualcosa.



Sostenetemi rinnovando l'abbonamento tramite mio referal.
Basta cliccare sul banner qui sotto

Immagine

Re: John Peter Sloan - Speak now! for work (2012) .avi mp3 (

Messaggio da leggereInviato: 16/01/2013, 15:38
da angry
Aggiunti tre dischi del corso.

Re: John Peter Sloan - Speak now! for work (2012) .avi mp3 (

Messaggio da leggereInviato: 29/01/2013, 22:58
da korabio
ciao, hai trovato per caso i dvd e i pdf mancanti? grazie 1000

Re: John Peter Sloan - Speak now! for work (2012) .avi mp3 (

Messaggio da leggereInviato: 30/01/2013, 10:44
da angry
No, sembra che nel web non ci siano se qualcuno sa dove trovarli mi faccia sapere

Re: John Peter Sloan - Speak now! for work (2012) .avi mp3 (

Messaggio da leggereInviato: 05/02/2013, 15:08
da sentoto68
confermo, anch'io li ho cercati in tutti i modi, finora senza successo.

Re: John Peter Sloan - Speak now! for work (2012) .avi mp3 (

Messaggio da leggereInviato: 02/11/2014, 13:01
da Toriko
Ciao. Purtroppo i link non funzionano più. Grazie